Трехлебов А.В. - Здоровый образ жизни.

Аватара пользователя
NZST
Сообщения: 39
Зарегистрирован: 29 май 2008, 09:22
Пол: Мужской
Откуда: Рассения

Трехлебов А.В. - Здоровый образ жизни.

Сообщение NZST » 12 янв 2009, 18:35

Трехлебов А.В. Здоровый образ жизни.

Изображение

Год выпуска: 2003
Страна: Россия
Жанр: просветительский, праистория
Продолжительность: 60 мин
Режиссер: Ильин
В ролях: Трехлебов А.В.

Описание: в данной встрече с А.В. Трехлебовым затронуты следующие темы:
как начать, прожить, завершить день. Питание. Дыхание

Стоп-кадры:
Изображение Изображение
Параметры рипа:
Format : AVI

Format/Info : Audio Video Interleave

File size : 498 MiB

Duration : 1h 0mn

Overall bit rate : 1 146 Kbps



Video

Format : MPEG-4 Visual

Format profile : Streaming Video@L1

Format settings, BVOP : Yes

Format settings, QPel : Yes

Format settings, GMC : 3 warppoints

Format settings, Matrix : Default

Codec ID : XVID

Codec ID/Hint : XviD

Duration : 1h 0mn

Bit rate : 1 040 Kbps

Width : 512 pixels

Height : 400 pixels

Display aspect ratio : 1.280

Frame rate : 25.000 fps

Resolution : 24 bits

Colorimetry : 4:2:0

Scan type : Interlaced

Scan order : Bottom Field First

Bits/(Pixel*Frame) : 0.203

Stream size : 452 MiB (91%)

Writing library : XviD 1.2.0.dev47 (UTC 2006-11-01)



Audio

Format : MPEG Audio

Format version : Version 1

Format profile : Layer 3

Codec ID : 55

Codec ID/Hint : MP3

Duration : 1h 0mn

Bit rate mode : Constant

Bit rate : 96.0 Kbps

Channel(s) : 2 channels

Sampling rate : 32.0 KHz

Resolution : 16 bits

Stream size : 41.7 MiB (8%)

Alignment : Aligned on interleaves

Interleave, duration : 36 ms (0.90 video frame)

Writing library : LAME3.98


Ссылки:

Аватара пользователя
almavit
Сообщения: 562
Зарегистрирован: 14 фев 2009, 20:10
Страна: Латвия
Пол: Мужской
Откуда: Riga

Re: Трехлебов А.В. - Здоровый образ жизни.

Сообщение almavit » 13 апр 2009, 10:14

:hi:

Мария
Сообщения: 2
Зарегистрирован: 06 июл 2009, 20:56

Re: Трехлебов А.В. - Здоровый образ жизни.

Сообщение Мария » 06 июл 2009, 21:00

Ну народ!!! Ну вы чего!!! Вам какой-то сумасшедший дядечка говорит как вам начинать, проживать и заканчивать Ваш день, а вы рады слушать... :lol: ЭТО ЖЕ ВАША ЖИЗНЬ!!! ВАША СВОБОДА!!! ОНА ОДНА У ВАС!!! :!: НЕ СЛУШАЙТЕ БРЕД СУМАСШЕДШИХ!!!

Мария
Сообщения: 2
Зарегистрирован: 06 июл 2009, 20:56

Re: Трехлебов А.В. - Здоровый образ жизни.

Сообщение Мария » 06 июл 2009, 21:01

От всего сердца вас прошу! :)

языче
Сообщения: 801
Зарегистрирован: 11 дек 2008, 20:45
Пол: Мужской
Контактная информация:

Re: Трехлебов А.В. - Здоровый образ жизни.

Сообщение языче » 07 июл 2009, 00:13

Мария, ты как будто с дубу :)
ты вот тоже говоришь, так что, тебя теперь и не слушать? а может тебе ярлык повесить?
и кто тебе дал право говорить о человеке, который для нашей Родины сделал больше, чем все мы вместе взятые, как о сумасшедшем?
ты ничего не попутала? :)
каждый сам решает, принимать ему что или нет, а ты не права
такое чувство, что ты вчера проснулась и от открывшихся возможностей у тебя сорвало крышу
сполосни личико водой холодной, приди в себя

Аватара пользователя
Kovalson
Сообщения: 3305
Зарегистрирован: 03 мар 2008, 21:35
Город: ¯\_(ツ)_/¯
Пол: Мужской

Re: Трехлебов А.В. - Здоровый образ жизни.

Сообщение Kovalson » 07 июл 2009, 00:27

Да Марусь,бери от жизни всё.!?
А ещё этот ведоман говорит,что никому нельзя верить...вот мы и не верим,даже,самим себе,не то,что Марии...
;-)
з.ы. Слобода без воли, только ЯД!

Аватара пользователя
Борилень
Сообщения: 51
Зарегистрирован: 03 янв 2009, 14:39
Город: Москва
Пол: Мужской
Откуда: Россия

Re: Трехлебов А.В. - Здоровый образ жизни.

Сообщение Борилень » 07 июл 2009, 09:20

Kovalson писал(а):Слобода без воли, только ЯД!

Золотые слова!

Аватара пользователя
almavit
Сообщения: 562
Зарегистрирован: 14 фев 2009, 20:10
Страна: Латвия
Пол: Мужской
Откуда: Riga

Re: Трехлебов А.В. - Здоровый образ жизни.

Сообщение almavit » 07 июл 2009, 13:02

Здравия желаю.
Здрава будь, Мария.
Развеселила и удивила, спасибо Тебе.
За 4-е минуты прибывания на Форуме разобраться и поставить диагноз - это Мастерство.
Поделитесь опытом. А, мы тут "копья" ломаем в поисках Истины и Проводников Истины.
Есть ещё вещающий Дяденька на этом Форуме, на другой ветке . Пост - Эдуард Ходос . Rav Hodos . от 27.06.09. Поделись своим мнением , пожалуйста. _ссылка_.


Вернуться в «Обучающие фильмы»

Кто сейчас на конференции

Сейчас этот форум просматривают: нет зарегистрированных пользователей и 1 гость